Search in ebookee.net!

Cathe Friedrich: Core Max (Repost)



The poster (email) is not available. 收藏推荐: Bookmark this: Cathe Friedrich Core Max Repost

图书介绍


Cathe Friedrich Core Max Repost

Cathe Friedrich: Core Max (Repost)
DVDRip | English | AVI/DivX 29.970 fps 1255 Kbps | 640x480 | AC3 192 Kbps 48.0 khz | 1h 2mn | 650 MB
Genre: Video Training, Fitness

“Core Max is a 60 minute workout that is broken down into the following segments. Feel free to pick and choose anyone of the segments and do them 3 times per week.

Segment One (20 minutes)....no equipment used. Here are the exercises you will be seeing:

1) Super Mans
2) Levitation Holds
3) Hip Lifts Bent Leg
4) Hip Lifts Straight Leg
5) Corkscrew
6) Opposite elbow to knee
7) Reach to outside of knee
8) Frog Style crunches (both knees open to sides)
9) Crunches with straight legs in air
10) Crunches w/knees bent on floor
11) 3 level crunches
12) rope climb crunches
13) Frog Style crunches (second time)
14) 3 level crunches (second time) w/ pulses at the top
15) Ax Crunches
16) Reverse Crunches
17) Crunches w/Arms and legs extended
18) Reverse crunch (second time)
19) Straight Leg Prone Plank
20) Hip Dip Planks

Segment Two w/ Stability Ball Only (20 minutes). Here is a list of the exercises you will be doing:

1) Superman on ball
2) Roll Out's
3) Roll In's
4) Roll In's for obliques (legs pull in on an angle)
5) Pikes (jacknife) on the ball
6) Crunches on top of ball
7) Long Lever Ball Exchange
8) Vertical Oblique Rotations w/ legs straight in air
9) Side to Side Chops
10) Ax Chops for Obliques
11) Pelvic Tilt Crunches

Segment #3...Stability Ball AND Medicine Ball (20 minutes) Here is a list of the exercises you will be doing:

MED BALL ONLY
1) Superman (no equipment)
2) Curl Up's w/ med ball
3) Rocket Shoots
4) Modified V-Sit
5) Oblique Rotations w/ knees bent in the air STABILITY AND MEDICINE BALL Together
6) Side to side rotations
7) supine wood chops on a diagonal
8) side to side wood chops on stability ball holding med ball
9) Oblique crunches w/med ball on shoulder
10) Long Range crunches
11) Short range crunches
12) Long Range crunch (2nd set)
13) Short Range crunch (2nd set)”
Cathe Friedrich Core Max RepostMediaInfo:
General
Complete name : Cathe Friedrich - Core Max.avi
Format : AVI
Format/Info : Audio Video Interleave
File size : 650 MiB
Duration : 1h 2mn
Overall bit rate : 1 455 Kbps
Writing application : VirtualDubMod 1.5.4.1 (build 2178/release)
Writing library : VirtualDubMod build 2178/release

Video
ID : 0
Format : MPEG-4 Visual
Format settings, BVOP : 1
Format settings, QPel : No
Format settings, GMC : No warppoints
Format settings, Matrix : Default (H.263)
Muxing mode : Packed bitstream
Codec ID : DX50
Codec ID/Hint : DivX 5
Duration : 1h 2mn
Bit rate : 1 255 Kbps
Width : 640 pixels
Height : 480 pixels
Display aspect ratio : 4:3
Frame rate : 29.970 fps
Color space : YUV
Chroma subsampling : 4:2:0
Bit depth : 8 bits
Scan type : Progressive
Compression mode : Lossy
Bits/(Pixel*Frame) : 0.136
Stream size : 561 MiB (86%)
Writing library : DivX 6.8.2 (UTC 2008-05-17)

Audio
ID : 1
Format : AC-3
Format/Info : Audio Coding 3
Mode extension : CM (complete main)
Format settings, Endianness : Big
Codec ID : 2000
Duration : 1h 2mn
Bit rate mode : Constant
Bit rate : 192 Kbps
Channel(s) : 2 channels
Channel positions : Front: L R
Sampling rate : 48.0 KHz
Bit depth : 16 bits
Compression mode : Lossy
Stream size : 85.8 MiB (13%)
Alignment : Split accross interleaves
Interleave, duration : 96 ms (2.88 video frames)
Interleave, preload duration : 96 ms

Screenshots

Cathe Friedrich Core Max Repost

Cathe Friedrich Core Max Repost

Cathe Friedrich Core Max Repost

no mirrors please.
Visit Polik88 Blog Here
no password

Cathe Friedrich Core Max Repost



[Directly Download] Cathe Friedrich: Core Max (Repost)!


Download this book
DOWNLOAD Free download ezdownloader, then you can free download.

Download "Cathe Friedrich: Core Max (Repost)"

使用ezdownloader下载
DOWNLOAD


Copyright Disclaimer:
本站一切内容源于互联网搜索,禁止商用! 如有任何不妥请联系:[email protected],我们将在24小时内删除相关内容。

浏览量:0 添加时间:2014-06-19 06:42:46, 更新时间:2014-06-19 06:42:46, from internet

搜索该书!...


Search mirrors of "Cathe Friedrich: Core Max (Repost)"...

Search in ebookee.com!

下载链接


Free Magazine Subscriptions & Technical Document Downloads

推荐:使用EZdownloader下载电子书


没有下载链接
请在图书介绍里查找下载链接,如果没有,可以试着搜索有无其它该书信息。

不能下载?
如果不能下载或者在“图书介绍”中找不到 "Cathe Friedrich: Core Max (Repost)" 的下载链接请留言。下次访问本站时察看 所有留言 看是否有人已经更新了该书。

该书可能有其它下载链接,请点 这里查询相关图书


相关链接


"Cathe Friedrich: Core Max (Repost)" 相关链接:


Comments


"Cathe Friedrich: Core Max (Repost)" 没有评论.

    Leave a Comment

    如果没有下载链接或者下载链接无效,请查看相关链接或者搜索相关资料。

    required

    required

    email addresses

    required

    Not clear? Click to refresh.


    1. 艺术设计
    2. 有声读物
    3. 语言文化
    4. 家庭生活
    5. 法律
    6. 音乐歌词
    7. 软件相关
    8. BT种子
    9. 其它图书
    10. 所有留言
    11. 留言评论
    12. Download Thousands of Books two weeks for FREE!
    13. Download millions of Usenet resources!
    14. 海淀驾校
    Back to Top